Archer 2009 S07E09 720p HDTV x264-FLEET[rartv]

seeders: 366
leechers: 14
updated:
Added by z0n3212.58M in TV
Torrent verified. Downloaded 34,188 times.

DownloadFast Safe Anonymous
movies, software, shows...
  • View all Archer (2009) episodes
  • Episode title: Deadly Velvet: Part I
  • Episode: S07E09
  • Air date: 26 May 2016
  • IMDb link: 1486217
  • TVmaze link: Archer (2009)
  • Original run: 17 September 2009 — Present
  • Summary:

    At a international spy agency, global crises are merely opportunities for its highly trained employees to confuse, undermine, betray and royally screw each other.

    Written by AllOuttaGum35.76K Last edited by Hand_of_Doom, 1 year and 3 months ago
Available in versions: 1080p720p480pHDTVWEBRipx264x265
Archer 2009 S07E09 720p HDTV x264-FLEET[rartv] (Size: 625.52 MB)
  Archer.2009.S07E09.720p.HDTV.x264-FLEET.mkv 625.52 MB
  rarbg.com.txt 34 bytes
  Archer.2009.S07E09.720p.HDTV.x264-FLEET.nfo 696 bytes

Description


http://rarbg.to
Archer.2009.S07E09.720p.HDTV.x264-FLEET[rartv]

image
Screens :

image
Mediainfo :

Video
ID : 1
Format : AVC
Format/Info : Advanced Video Codec
Format profile : [email protected]
Format settings, CABAC : Yes
Format settings, ReFrames : 5 frames
Codec ID : V_MPEG4/ISO/AVC
Duration : 21mn 25s
Bit rate : 3 617 Kbps
Width : 1 280 pixels
Height : 720 pixels
Display aspect ratio : 16:9
Frame rate mode : Constant
Frame rate : 23.976 (24000/1001) fps
Color space : YUV
Chroma subsampling : 4:2:0
Bit depth : 8 bits
Scan type : Progressive
Bits/(Pixel*Frame) : 0.164
Stream size : 554 MiB (89%)
Writing library : x264 core 148 r2694 3b70645
Encoding settings : cabac=1 / ref=5 / deblock=1:-2:-2 / analyse=0x3:0x113 / me=umh / subme=8 / psy=1 / psy_rd=1.05:0.00 / mixed_ref=1 / me_range=16 / chroma_me=1 / trellis=1 / 8x8dct=1 / cqm=0 / deadzone=21,11 / fast_pskip=1 / chroma_qp_offset=-2 / threads=18 / lookahead_threads=3 / sliced_threads=0 / nr=0 / decimate=1 / interlaced=0 / bluray_compat=0 / constrained_intra=0 / bframes=3 / b_pyramid=2 / b_adapt=2 / b_bias=0 / direct=3 / weightb=1 / open_gop=0 / weightp=2 / keyint=250 / keyint_min=23 / scenecut=40 / intra_refresh=0 / rc_lookahead=50 / rc=crf / mbtree=1 / crf=18.0 / qcomp=0.70 / qpmin=0 / qpmax=69 / qpstep=4 / ip_ratio=1.40 / aq=1:0.70
Language : English
Default : Yes
Forced : No

Audio
ID : 2
Format : AC-3
Format/Info : Audio Coding 3
Mode extension : CM (complete main)
Format settings, Endianness : Big
Codec ID : A_AC3
Duration : 21mn 25s
Bit rate mode : Constant
Bit rate : 384 Kbps
Channel(s) : 6 channels
Channel positions : Front: L C R, Side: L R, LFE
Sampling rate : 48.0 KHz
Frame rate : 31.250 fps (1536 spf)
Compression mode : Lossy
Stream size : 58.8 MiB (9%)
Language : English
Default : Yes
Forced : No

Text
ID : 3
Format : UTF-8
Codec ID : S_TEXT/UTF8
Codec ID/Info : UTF-8 Plain Text
Title : English
Language : English
Default : No
Forced : No

Related Torrents

torrent name size files age seed leech

Sharing Widget


Download torrent
625.52 MB
seeders:374
leechers:9
Archer 2009 S07E09 720p HDTV x264-FLEET[rartv]



To share this torrent use the code below and insert it into comments, status messages, forum posts or your signature.

Torrent: Archer 2009 S07E09 720p HDTV x264-FLEET[rartv]

Trackers

tracker name
udp://tracker.openbittorrent.com:80/announce
udp://tracker.coppersurfer.tk:6969/announce
udp://glotorrents.pw:6969/announce
http://tracker2.wasabii.com.tw:6969/announce
http://explodie.org:6969/announce
http://open.acgtracker.com:1096/announce
udp://tracker.opentrackr.org:1337/announce
http://tracker.baravik.org:6970/announce
µTorrent compatible trackers list

Locations

name
KickassTorrents
Torrent hash: 77FCEE08E2F556CB3D7F3AF4348FDCCDCC385EAA

Top Comments

2
Gedor3783
audio: 9video: 9
Thanks z0n3212.58M

All Comments

audio
9/10
video
9/10
please, leave only comments related to that torrent
Sign In

audio: 9video: 9
Thanks!
audio: 9video: 9
haha thanks
audio: 9video: 9
Thanks!
when trying to play the video, my vlc player keeps crashing around 8 and 10 minutes in. any suggestions?
audio: 9video: 9
thanks a lot
Show More All

User Opinions

bigdee638605, CypryanV3929, skinninja1135, dream4ali515, takanuva200399, hummad324, compuvette247, nightanasazi114, Annex1103, oskylp95 ... And 732 more
DanteHicks1430, xbashe484, patjohnfive78, Hafiz199445
Report a bug Open chat
Sitemap