Rizzoli and Isles S07E06 720p HDTV x264-FLEET[rartv]

seeders: 88
leechers: 2
updated:
Added by z0n3212.58M in TV
Torrent verified. Downloaded 4,526 times.

DownloadFast Safe Anonymous
movies, software, shows...
  • View all Rizzoli & Isles episodes
  • Episode title: There Be Ghosts
  • Episode: S07E06
  • Air date: 11 July 2016
  • IMDb link: 1551632
  • TVmaze link: Rizzoli & Isles
  • Original run: 12 July 2010 — Present
  • Summary:

    Detective Jane Rizzoli and Medical Examiner Dr. Maura Isles team up to solve crimes in Boston.

    Written by Thhaque414.95K
Available in versions: 1080p720p480pHDTVWEBRipx265
Rizzoli and Isles S07E06 720p HDTV x264-FLEET[rartv] (Size: 859.21 MB)
  rarbg.com.txt 34 bytes
  Rizzoli.and.Isles.S07E06.720p.HDTV.x264-FLEET.mkv 859.21 MB
  Rizzoli.and.Isles.S07E06.720p.HDTV.x264-FLEET.nfo 696 bytes

Description


http://rarbg.to
Rizzoli.and.Isles.S07E06.720p.HDTV.x264-FLEET[rartv]

image
Screens :

image
Mediainfo :

Video
ID : 1
Format : AVC
Format/Info : Advanced Video Codec
Format profile : [email protected]
Format settings, CABAC : Yes
Format settings, ReFrames : 5 frames
Codec ID : V_MPEG4/ISO/AVC
Duration : 41mn 22s
Bit rate : 2 397 Kbps
Width : 1 280 pixels
Height : 720 pixels
Display aspect ratio : 16:9
Frame rate mode : Constant
Frame rate : 23.976 (24000/1001) fps
Color space : YUV
Chroma subsampling : 4:2:0
Bit depth : 8 bits
Scan type : Progressive
Bits/(Pixel*Frame) : 0.108
Stream size : 710 MiB (83%)
Writing library : x264 core 148 r2705 3f5ed56
Encoding settings : cabac=1 / ref=5 / deblock=1:-2:-2 / analyse=0x3:0x113 / me=umh / subme=8 / psy=1 / psy_rd=1.05:0.00 / mixed_ref=1 / me_range=16 / chroma_me=1 / trellis=1 / 8x8dct=1 / cqm=0 / deadzone=21,11 / fast_pskip=1 / chroma_qp_offset=-2 / threads=22 / lookahead_threads=3 / sliced_threads=0 / nr=0 / decimate=1 / interlaced=0 / bluray_compat=0 / constrained_intra=0 / bframes=3 / b_pyramid=2 / b_adapt=2 / b_bias=0 / direct=3 / weightb=1 / open_gop=0 / weightp=2 / keyint=250 / keyint_min=23 / scenecut=40 / intra_refresh=0 / rc_lookahead=50 / rc=crf / mbtree=1 / crf=18.0 / qcomp=0.60 / qpmin=0 / qpmax=69 / qpstep=4 / ip_ratio=1.40 / aq=1:0.70
Language : English
Default : Yes
Forced : No

Audio
ID : 2
Format : AC-3
Format/Info : Audio Coding 3
Mode extension : CM (complete main)
Format settings, Endianness : Big
Codec ID : A_AC3
Duration : 41mn 22s
Bit rate mode : Constant
Bit rate : 448 Kbps
Channel(s) : 6 channels
Channel positions : Front: L C R, Side: L R, LFE
Sampling rate : 48.0 KHz
Frame rate : 31.250 fps (1536 spf)
Compression mode : Lossy
Stream size : 133 MiB (15%)
Language : English
Default : Yes
Forced : No

Text
ID : 3
Format : UTF-8
Codec ID : S_TEXT/UTF8
Codec ID/Info : UTF-8 Plain Text
Title : English
Language : English
Default : No
Forced : No

Related Torrents

torrent name size files age seed leech

Sharing Widget


Download torrent
859.21 MB
seeders:89
leechers:6
Rizzoli and Isles S07E06 720p HDTV x264-FLEET[rartv]



To share this torrent use the code below and insert it into comments, status messages, forum posts or your signature.

Torrent: Rizzoli and Isles S07E06 720p HDTV x264-FLEET[rartv]

Trackers

tracker name
udp://tracker.publicbt.com:80/announce
udp://9.rarbg.me:2710/announce
udp://tracker.openbittorrent.com:80/announce
udp://tracker.coppersurfer.tk:6969/announce
udp://p4p.arenabg.com:1337/announce
http://tracker.trackerfix.com/announce
udp://9.rarbg.to:2710/announce
udp://tracker.opentrackr.org:1337/announce
µTorrent compatible trackers list

Locations

name
KickassTorrents
Torrent hash: FD4C880615D106F15CA17BECBC9BEBED84E7DA0A

All Comments

audio
10/10
video
9/10
please, leave only comments related to that torrent
Sign In

User Opinions

Chief.Mokum.217.45K, LeRalouf12.86K, venuscat5586, rurocking2374, mandead1856, oacuspocus1763, Infomaniac1558, Radar7121428, cyda1103, macky11400 ... And 40 more
Report a bug Open chat
Sitemap