Top Gear S23E03 720p HDTV x264-FoV[rartv]

seeders: 338
leechers: 6
updated:
Added by z0n3212.58M in TV
Torrent verified. Downloaded 39,492 times.

DownloadFast Safe Anonymous
movies, software, shows...
  • View all Top Gear episodes
  • Episode title: Episode 3
  • Episode: S23E03
  • Air date: 12 June 2016
  • IMDb link: 1628033
  • TVmaze link: Top Gear
  • Original run: 20 October 2002 — Present
  • Summary:

    This fast-paced and stunt-filled motor show tests whether cars, both mundane and extraordinary, live up to their manufacturers' claims. The long-running show travels to locations around the world, performing extreme stunts and challenges to see what the featured cars are capable of doing.

    Written by Eppo77.2K Last edited by WyldChyld, 3 weeks ago
Available in versions: 1080p720p480pHDTVx264x265
Top Gear S23E03 720p HDTV x264-FoV[rartv] (Size: 1.36 GB)
  rarbg.com.txt 34 bytes
  top.gear.s23e03.720p.hdtv.x264-fov.nfo 9.48 KB
  top_gear.23x03.720p_hdtv_x264-fov.mkv 1.36 GB

Description


http://rarbg.to
Top.Gear.S23E03.720p.HDTV.x264-FoV[rartv]

image
Screens :

image
Mediainfo :

Video
ID : 1
Format : AVC
Format/Info : Advanced Video Codec
Format profile : [email protected]
Format settings, CABAC : Yes
Format settings, ReFrames : 5 frames
Codec ID : V_MPEG4/ISO/AVC
Duration : 58mn 12s
Bit rate : 3 095 Kbps
Width : 1 280 pixels
Height : 720 pixels
Display aspect ratio : 16:9
Frame rate mode : Constant
Frame rate : 25.000 fps
Color space : YUV
Chroma subsampling : 4:2:0
Bit depth : 8 bits
Scan type : Progressive
Bits/(Pixel*Frame) : 0.134
Stream size : 1.26 GiB (92%)
Writing library : x264 core 148 r2692 64f4e24
Encoding settings : opencl=1 / cabac=1 / ref=5 / deblock=1:0:0 / analyse=0x3:0x113 / me=umh / subme=8 / psy=1 / psy_rd=1.00:0.00 / mixed_ref=1 / me_range=16 / chroma_me=1 / trellis=1 / 8x8dct=1 / cqm=0 / deadzone=21,11 / fast_pskip=1 / chroma_qp_offset=-2 / threads=18 / lookahead_threads=3 / sliced_threads=0 / nr=0 / decimate=1 / interlaced=0 / bluray_compat=0 / constrained_intra=0 / bframes=3 / b_pyramid=2 / b_adapt=2 / b_bias=0 / direct=3 / weightb=1 / open_gop=0 / weightp=2 / keyint=250 / keyint_min=25 / scenecut=40 / intra_refresh=0 / rc_lookahead=50 / rc=crf / mbtree=1 / crf=20.0 / qcomp=0.60 / qpmin=0 / qpmax=69 / qpstep=4 / ip_ratio=1.40 / aq=1:1.00
Language : English
Default : Yes
Forced : No
Color range : Limited
Matrix coefficients : BT.709

Audio
ID : 2
Format : AC-3
Format/Info : Audio Coding 3
Mode extension : CM (complete main)
Format settings, Endianness : Big
Codec ID : A_AC3
Duration : 58mn 12s
Bit rate mode : Constant
Bit rate : 192 Kbps
Channel(s) : 2 channels
Channel positions : Front: L R
Sampling rate : 48.0 KHz
Frame rate : 31.250 fps (1536 spf)
Compression mode : Lossy
Stream size : 79.9 MiB (6%)
Default : Yes
Forced : No

Related Torrents

torrent name size files age seed leech

Sharing Widget


Download torrent
1.36 GB
seeders:290
leechers:6
Top Gear S23E03 720p HDTV x264-FoV[rartv]



To share this torrent use the code below and insert it into comments, status messages, forum posts or your signature.

Torrent: Top Gear S23E03 720p HDTV x264-FoV[rartv]

Trackers

tracker name
udp://tracker.openbittorrent.com:80/announce
udp://9.rarbg.com:2710/announce
udp://tracker.coppersurfer.tk:6969/announce
udp://tracker.trackerfix.com:80/announce
udp://glotorrents.pw:6969/announce
udp://tracker.leechers-paradise.org:6969/announce
http://tracker.trackerfix.com/announce
udp://explodie.org:6969/announce
udp://torrent.gresille.org:80/announce
udp://tracker.opentrackr.org:1337/announce
µTorrent compatible trackers list

Locations

name
KickassTorrents
Torrent hash: 76A1D30C70B151746A45EB610AFF349B30F54CB7

Top Comments

23
eagleyeske351
i still refuse to watch this.
16
anonymous
audio: 10video: 10
lol @ show description. Maybe the Amazon Prime show with the three REAL hosts will actually deliver.
7
AKamble00710
Shows description is misleading
4
wmar3933803
audio: 7video: 8
Just upvoting the the Quality of the torrent.
NOT the Show!, which still sucks with the new hosts.
Thanks z0n3212.58M

All Comments

audio
8/10
video
9/10
please, leave only comments related to that torrent
Sign In

audio: 8video: 8
Thanks...........thumb_upthumb_up But New hosts suck
audio: 2video: 8
nice picture but audio level is very low
audio: 10video: 10
Thank you !
audio: 9video: 9
nice. Good copy
audio: 9video: 9
thanks :)
audio: 9video: 9
Good Stuff - NO Issues/Problems to report. And to the uploader : Thank you for sharing you did a great job (:
I think it's not a bad show. Leblanc is a funny guy and it still have a huge budget, so they can make cool things. The problem is Evans and the fact that the old trio was just awesome.
Show More All

User Opinions

Report a bug Open chat
Sitemap